用户
 找回密码
 注册

QQ登录

只需一步,快速开始

2012-9-21 10:45 LouisLaw 创始人 楼主 微博分享 415683

立即注册,加入爱黑武论坛的大家庭!爱黑武,爱上搞机生活!

您需要 登录 才可以下载或查看,没有帐号?注册

x
本资源来源于网络,请下载后24小时以内删除,如果本资源涉及到版权问题,触犯法律法规请及时通知我论坛管理员,将于24小时内进行删除。

w.jpg

  1. TITLE "我和殭屍有個約會 Ⅱ 亞洲電視劇原聲"
  2. FILE "原声大碟.-.[我和僵尸有个约会2].专辑.flac" WAVE
  3.   TRACK 01 AUDIO
  4.     PERFORMER "群星"
  5.     TITLE "永世的緣"
  6.     REM DATE 2002
  7.     REM GENRE Soundtrack
  8.     INDEX 01 00:00:00
  9.   TRACK 02 AUDIO
  10.     PERFORMER "群星"
  11.     TITLE "假如真的再有個約會"
  12.     REM DATE 2002
  13.     REM GENRE Soundtrack
  14.     INDEX 01 01:57:63
  15.   TRACK 03 AUDIO
  16.     PERFORMER "群星"
  17.     TITLE "復活"
  18.     REM DATE 2002
  19.     REM GENRE Soundtrack
  20.     INDEX 01 06:19:35
  21.   TRACK 04 AUDIO
  22.     PERFORMER "群星"
  23.     TITLE "情未了"
  24.     REM DATE 2002
  25.     REM GENRE Soundtrack
  26.     INDEX 00 07:42:58
  27.     INDEX 01 07:42:71
  28.   TRACK 05 AUDIO
  29.     PERFORMER "群星"
  30.     TITLE "愛在地球毀滅時"
  31.     REM DATE 2002
  32.     REM GENRE Soundtrack
  33.     INDEX 01 10:30:15
  34.   TRACK 06 AUDIO
  35.     PERFORMER "群星"
  36.     TITLE "僵尸魔法"
  37.     REM DATE 2002
  38.     REM GENRE Soundtrack
  39.     INDEX 01 14:03:27
  40.   TRACK 07 AUDIO
  41.     PERFORMER "群星"
  42.     TITLE "愛與夢"
  43.     REM DATE 2002
  44.     REM GENRE Soundtrack
  45.     INDEX 00 17:29:06
  46.     INDEX 01 17:29:14
  47.   TRACK 08 AUDIO
  48.     PERFORMER "群星"
  49.     TITLE "復生與天佑"
  50.     REM DATE 2002
  51.     REM GENRE Soundtrack
  52.     INDEX 01 19:13:37
  53.   TRACK 09 AUDIO
  54.     PERFORMER "群星"
  55.     TITLE "夢里是誰"
  56.     REM DATE 2002
  57.     REM GENRE Soundtrack
  58.     INDEX 00 20:42:25
  59.     INDEX 01 20:42:27
  60.   TRACK 10 AUDIO
  61.     PERFORMER "群星"
  62.     TITLE "愿永世與共"
  63.     REM DATE 2002
  64.     REM GENRE Soundtrack
  65.     INDEX 01 24:44:16
  66.   TRACK 11 AUDIO
  67.     PERFORMER "群星"
  68.     TITLE "假如真的再有約會-劇場版"
  69.     REM DATE 2002
  70.     REM GENRE Soundtrack
  71.     INDEX 01 26:43:64
  72.   TRACK 12 AUDIO
  73.     PERFORMER "群星"
  74.     TITLE "愛在地球毀滅時-珍藏版"
  75.     REM DATE 2002
  76.     REM GENRE Soundtrack
  77.     INDEX 01 28:16:4
复制代码
游客,如果您要查看本帖隐藏内容请回复
爱黑武,爱上搞机生活!
使用道具 举报 回复
严重支持。。。。。。。
爱黑武,爱上搞机生活!
使用道具 举报 回复 支持 反对
主题将同步到QQ空间和腾讯微博,您的好友或听众能够看到您发表的主题。  暂不同步
爱黑武,爱上搞机生活!
使用道具 举报 回复 支持 反对
严重支持。。。。。。。
爱黑武,爱上搞机生活!
使用道具 举报 回复 支持 反对
谢谢楼主的资源的啊
爱黑武,爱上搞机生活!
使用道具 举报 回复 支持 反对
好好学习天天向上
爱黑武,爱上搞机生活!
使用道具 举报 回复 支持 反对
找了好久了,谢谢lz~
爱黑武,爱上搞机生活!
使用道具 举报 回复 支持 反对
多谢楼主的分享
爱黑武,爱上搞机生活!
使用道具 举报 回复 支持 反对
好东西必须顶
爱黑武,爱上搞机生活!
使用道具 举报 回复 支持 反对
了考虑可怜看
爱黑武,爱上搞机生活!
使用道具 举报 回复 支持 反对
12345下一页
发新帖
 Hello,黑武的好机友!回复想偷个懒?点这里: 
您需要登录后才可以回帖 登录 | 注册
关闭

站长推荐 上一条 /1 下一条