用户
 找回密码
 注册

QQ登录

只需一步,快速开始

2012-2-27 16:04 LouisLaw 创始人 楼主 微博分享 43827955

立即注册,加入爱黑武论坛的大家庭!爱黑武,爱上搞机生活!

您需要 登录 才可以下载或查看,没有帐号?注册

x
1.jpg
PERFORMER "C Allstar"
TITLE "我们的胡士托"
FILE "C Allstar - 我们的胡士托.flac" WAVE
  TRACK 01 AUDIO
    TITLE "全情关注"
    PERFORMER "C Allstar"
    INDEX 01 00:00:00
  TRACK 02 AUDIO
    TITLE "我们的胡士托"
    PERFORMER "C Allstar"
    INDEX 01 03:17:60
  TRACK 03 AUDIO
    TITLE "iSing(What I Mean)"
    PERFORMER "C Allstar"
    INDEX 01 06:40:29
  TRACK 04 AUDIO
    TITLE "We Will Live As One"
    PERFORMER "C Allstar"
    INDEX 01 11:14:29
  TRACK 05 AUDIO
    TITLE "千秋万世"
    PERFORMER "C Allstar"
    INDEX 01 14:22:00
  TRACK 06 AUDIO
    TITLE "天梯"
    PERFORMER "C Allstar"
    INDEX 01 18:08:12
  TRACK 07 AUDIO
    TITLE "时间之光"
    PERFORMER "C Allstar"
    INDEX 01 22:34:70
  TRACK 08 AUDIO
    TITLE "足球先生"
    PERFORMER "C Allstar"
    INDEX 01 26:44:45

游客,如果您要查看本帖隐藏内容请回复




爱黑武,爱上搞机生活!
使用道具 举报 回复
2012-2-28 22:34 ufopsp
沙发
谢谢分享。。。。。。。
爱黑武,爱上搞机生活!
使用道具 举报 回复 支持 反对
加油,Callstar
爱黑武,爱上搞机生活!
使用道具 举报 回复 支持 反对
加油 callstar
爱黑武,爱上搞机生活!
使用道具 举报 回复 支持 反对
不错喜欢吖 哈哈
爱黑武,爱上搞机生活!
使用道具 举报 回复 支持 反对
谢谢分享。。。。。。。
爱黑武,爱上搞机生活!
使用道具 举报 回复 支持 反对
{:soso_e117:}听听
爱黑武,爱上搞机生活!
使用道具 举报 回复 支持 反对
{:soso_e113:}
爱黑武,爱上搞机生活!
使用道具 举报 回复 支持 反对
感谢分享,找了这首歌的无损格式很久了{:soso_e144:}
爱黑武,爱上搞机生活!
使用道具 举报 回复 支持 反对
找了很久了有木有啊
爱黑武,爱上搞机生活!
使用道具 举报 回复 支持 反对
 Hello,黑武的好机友!回复想偷个懒?点这里: 
您需要登录后才可以回帖 登录 | 注册
关闭

站长推荐 上一条 /1 下一条